<?xml version="1.0" standalone="no"?>
<!DOCTYPE svg PUBLIC "-//W3C//DTD SVG 1.1//EN" "http://www.w3.org/Graphics/SVG/1.1/DTD/svg11.dtd" >
<svg xmlns="http://www.w3.org/2000/svg">
  <metadata>Created by iconfont</metadata>
  <defs>
  <font id="iconfont" horiz-adv-x="1024">
    <font-face
      font-family="iconfont"
      font-weight="400"
      font-stretch="normal"
      units-per-em="1024"
      ascent="896"
      descent="-128"
    />
      <missing-glyph />
      
      <glyph glyph-name="chanpin" unicode="&#58894;" d="M933.401354 711.135539L699.917095 855.995155c-19.210303 11.964369-45.394665 10.36687-63.059032-3.826873L511.970937 751.694582 387.110999 852.153282c-17.591242 14.154368-43.853416 15.854055-62.992469 3.862498l-233.559259-144.899928c-30.992798-19.286241-34.495296-64.467156-6.154685-87.800582l108.383384-90.54933-88.129644-68.884654c-29.137486-22.470926-27.504362-67.877779 3.284998-88.112769L332.119152 227.123278c19.337803-12.741556 44.832165-11.785307 63.314969 2.170312l116.552755 89.744956 115.846818-89.675581c17.945617-13.813118 44.609041-14.770305 63.442469-2.202187l224.254577 148.64149c30.53436 20.33249 32.228422 65.294968 3.429373 87.947769l-87.873707 68.868716 108.331821 90.554955C967.8704 646.627133 964.564777 691.693673 933.401354 711.135539L933.401354 711.135539zM778.490806 501.928767l103.039637-80.764647L661.212426 275.124192l-102.715262 79.485898L778.490806 501.928767 778.490806 501.928767zM558.585289 716.556161l112.649945 90.619643 229.607699-142.457742L784.831115 567.702798 558.585289 716.556161 558.585289 716.556161zM728.813643 536.80375L511.835 391.496009 294.258233 535.433126l217.723017 144.029929L728.813643 536.80375 728.813643 536.80375zM465.220648 354.481653l-102.406824-78.843712L141.905183 421.161308l102.007449 79.70996L465.220648 354.481653 465.220648 354.481653zM123.143005 664.709625L353.292579 806.718305l112.119319-90.204331L239.786697 567.26311 123.143005 664.709625 123.143005 664.709625zM518.811871 250.686392L368.98257 136.656448 193.543595 252.942953l0-144.773367c0-19.379991 9.738745-36.506232 26.718737-46.984664l264.574557-149.532113c17.399992-9.833433 39.256855-10.405308 56.650284-0.455625L804.516731 61.645235c16.033117 9.877495 25.992174 27.704048 25.992174 46.524352L830.508905 244.26077 667.363361 137.143947 518.811871 250.686392zM250.145129 147.51363l88.768081-58.830908c19.252491-12.731243 44.82279-11.851869 63.238094 2.099061l116.585568 88.709019 115.923693-88.584331c17.885617-13.788743 44.678415-14.866867 63.444344-2.205937l75.798713 50.220913-0.004688-29.60436L514.165624-39.235341 250.145129 109.284274 250.145129 147.51363 250.145129 147.51363z"  horiz-adv-x="1024" />
      
      <glyph glyph-name="guojiwuliu" unicode="&#59310;" d="M572.853702 500.741581c-0.480924 1.50615-1.31229 2.833353-2.389709 3.910772-1.390579 1.386852-3.202434 2.344972-5.219334 2.687956l-255.933753 31.103501c-4.451346 0.753076-8.835586-1.666459-10.565422-5.838197-1.524791-3.675903-0.637504-7.843913 2.106374-10.576607 0.369082-0.369082 0.7829-0.715795 1.21536-1.028955l163.529178-123.817506c3.862307-2.743878 9.137562-2.300235 12.481664 1.055051l92.404574 92.714005C573.043835 493.516532 573.957218 497.289364 572.853702 500.741581zM694.833257 154.625199l-27.095797 224.453714c-0.264695 2.199577-1.267553 4.194107-2.781159 5.700259-1.01777 1.014042-2.266682 1.808127-3.679631 2.296507-3.508138 1.204174-7.396541 0.305704-10.017392-2.322603l-79.27795-79.546373c-3.370198-3.381383-3.772833-8.720016-0.943208-12.571138l106.366291-144.91107c0.298247-0.41009 0.62632-0.786628 0.976761-1.137069 2.695413-2.684229 6.773949-3.575244 10.397659-2.139927C692.872278 146.072948 695.358919 150.248415 694.833257 154.625199zM469.805416 158.990799l-21.347075 147.994206c1.241455 2.322603 1.50615 5.085123 0.641232 7.657507-0.484652 1.45023-1.297377 2.732694-2.344972 3.78029-0.369082 0.369082-0.775444 0.712066-1.200447 1.014042-0.305704 0.428731-0.648688 0.827638-1.017769 1.196718-1.047595 1.043867-2.337516 1.849135-3.787746 2.33006-2.568657 0.850006-5.331177 0.574126-7.646324-0.667329l-148.061311 20.851237c-4.402881 0.622592-8.660366-1.830495-10.326824-5.95004-1.480054-3.653534-0.592767-7.784264 2.139928-10.502045 0.346713-0.342985 0.719522-0.663601 1.122156-0.961849l100.63248-73.48449 73.812562-100.382698c0.298247-0.41009 0.62632-0.7829 0.973033-1.125885 2.725237-2.714054 6.859696-3.590156 10.505773-2.095189C468.001018 150.326706 470.439192 154.591647 469.805416 158.990799zM370.899044 310.403667l284.274734 285.229127c18.126 18.189377 47.570498 18.241571 65.763604 0.108115l0 0c18.189377-18.126 18.241571-47.570498 0.108115-65.763604l-284.274734-285.229126M370.899044 310.403667l284.274734 285.229127c18.126 18.189377 47.570498 18.241571 65.763604 0.108115l0 0c18.189377-18.126 18.241571-47.570498 0.108115-65.763604l-284.274734-285.229126M843.226368 53.142714c-7.109478-6.94917-14.591765-13.771585-22.070325-20.340489-46.142637-39.901806-98.697599-69.689288-155.782197-89.008279-59.351279-20.04597-121.327138-28.009181-184.544452-23.281956-63.090559 4.60047-123.28066 21.470102-179.075337 50.090691-53.79269 27.595363-101.202879 64.906142-141.104685 111.048779s-69.689288 98.697599-89.008279 155.782197c-20.04597 59.351279-28.009181 121.327138-23.281956 184.544452 4.60047 63.090559 21.470102 123.28066 50.090691 179.075337C121.42608 645.857696 151.381327 686.572227 187.428282 721.817641c7.109478 6.94917 14.591765 13.771585 22.070325 20.340489 46.015882 39.778778 98.697599 69.689288 155.908952 89.131305 59.351279 20.04597 121.327138 28.009181 184.544453 23.281956 74.629015-5.484028 145.295064-28.747344 210.24967-68.518666l0.123028-0.126755 0.123028-0.126755c10.733187-5.644337 17.130599-17.015028 16.370067-28.930021-0.585311-7.273515-3.675903-14.271149-8.880323-19.356272-6.218463-6.080524-14.6626-9.126377-23.445993-8.522426-2.635763 0.15658-4.883805 0.932024-6.762765 1.580712l-0.376538 0.130484-1.379395 0.141667-1.994531 1.278737c-55.22055 34.641463-117.636323 54.799275-185.368363 59.578693-108.122224 7.743254-212.829513-26.8572-294.463618-97.493424-6.464518-5.577231-12.932763-11.404244-19.024471-17.361741C199.962139 642.468857 171.647254 602.615517 151.191194 558.534517c-20.582815-44.207755-32.915355-91.770797-36.609897-141.063676-7.989308-107.868714 26.48439-212.445519 97.370396-294.336863 70.632496-81.887617 169.248077-131.452645 277.113063-139.441954 107.741958-8.116064 212.445519 26.48439 294.463619 97.243642 6.464518 5.577231 12.932763 11.404244 19.024471 17.361741 35.159668 34.376768 63.474553 74.230108 83.930612 118.311108 20.582815 44.207755 32.915355 91.770797 36.609898 141.063676 6.240831 86.294226-14.77817 170.765412-61.144494 244.846397l-0.123027 0.376537-0.249783 0.253511c-4.332047 5.446747-6.516711 12.250522-6.434693 19.531491 0.003729 0.249783 0.007456 0.503293 0.007456 0.503294 0.003729 0.249783 0.007456 0.503293 0.007456 0.753075 0.585311 7.273515 3.798929 14.140667 9.130106 19.356272 5.584687 5.461659 12.902939 8.641725 20.560446 8.682735 7.784264 0.164036 15.531246-2.937739 21.742252-9.033176 0.618863-0.633776 1.1147-1.394308 1.610537-1.901328 56.264417-86.998836 81.883888-186.583721 74.218925-287.928267-4.596742-62.840777-21.466373-123.030878-50.090691-179.075337C909.232298 129.102658 879.273323 88.388128 843.226368 53.142714z"  horiz-adv-x="1024" />
      
      <glyph glyph-name="yunying" unicode="&#59005;" d="M342.243556 742.354489a362.632533 362.632533 0 0 0 393.124977-34.861511 109.226667 109.226667 0 1 1 43.690667 58.800355 436.906667 436.906667 0 0 1-477.775644 37.137067l1.547377-1.365333a179.222756 179.222756 0 0 0 39.412623-59.710578zM147.911111 420.408889a361.2672 361.2672 0 0 0 30.674489 145.635555h6.917689A109.226667 109.226667 0 1 1 111.502222 595.080533a436.906667 436.906667 0 0 1 228.5568-576.443733 182.772622 182.772622 0 0 0 16.475022 72.817778A364.088889 364.088889 0 0 0 147.911111 420.408889z m718.165333 84.650667a364.088889 364.088889 0 0 0-255.863466-435.177245 109.226667 109.226667 0 1 1 9.739378-72.817778 436.906667 436.906667 0 0 1 314.754844 534.1184 180.861156 180.861156 0 0 0-68.630756-26.123377z"  horiz-adv-x="1024" />
      
      <glyph glyph-name="zhineng" unicode="&#59080;" d="M941.738667 444.586667l-96.426667 11.776-25.372444-50.744889c-13.994667-2.844444-28.672-7.623111-43.918223-14.222222l-39.537777 34.702222-79.189334-59.392 22.300445-49.493334a168.96 168.96 0 0 1-25.372445-45.738666l-54.442666-5.575111-11.719112-97.109334 52.565334-19.171555c2.844444-15.644444 8.021333-31.914667 15.473778-48.810667l-38.968889-37.091555 61.212444-81.009778 51.313778 24.120889c11.150222-7.395556 25.372444-15.075556 42.666667-22.926223l2.503111-56.263111 102.627555-13.596444 17.294222 51.939555c13.653333 2.048 29.297778 6.599111 46.990223 13.653334l42.666666-35.271111 77.937778 62.464-23.495111 47.616a155.875556 155.875556 0 0 1 25.372444 45.112889l54.385778 4.323555 11.776 98.986667-50.744889 16.668444a193.991111 193.991111 0 0 1-14.791111 49.493334l35.214222 41.984-61.212444 77.368888-48.241778-23.552a175.217778 175.217778 0 0 1-44.544 24.120889l-4.323555 55.637334z m84.764444-110.08l17.92-22.186667-29.696-35.896889 4.949333-12.401778c12.8-28.444444 18.545778-47.786667 17.294223-58.083555l-1.820445-17.351111 48.184889-16.042667-3.697778-28.444444-50.688-4.949334-3.072-16.099555c-2.901333-16.896-12.401778-33.792-28.444444-50.688l-10.524445-11.150223 21.048889-42.666666-22.926222-18.545778-38.343111 31.516444-12.970667-7.395555a129.706667 129.706667 0 0 0-56.888889-16.725333l-14.222222-0.568889-14.791111-45.169778-31.573333 3.697778-1.877334 46.990222-12.344888 5.575111c-28.842667 12.401778-47.445333 22.300444-55.637334 29.696l-10.524444 9.898667-43.918222-21.048889-17.294223 22.300444 32.768 31.516445-6.200889 13.653333c-12.8 31.687111-19.171556 52.110222-19.171555 61.155556v15.473777l-46.364445 17.294223 3.072 28.444444 46.990223 4.323556 4.323555 13.653333c3.754667 10.24 8.248889 20.366222 13.653334 30.264889 4.949333 9.898667 8.817778 15.928889 11.719111 17.92l19.171555 9.272889-23.495111 50.744889 23.495111 17.92 35.271111-31.516445 13.596445 7.395556c19.797333 11.548444 36.465778 17.294222 50.062222 17.294222h13.653333l22.812445 45.795555 31.573333-3.754666 3.697778-47.616 13.653333-4.892445c28.444444-10.353778 45.283556-19.399111 50.631111-27.249777l11.150223-13.596445 45.738666 22.243556z m-46.421333-160.142223a117.646222 117.646222 0 0 1-25.315556 90.282667 119.409778 119.409778 0 0 1-81.635555 45.795556 116.736 116.736 0 0 1-90.282667-25.372445c-26.396444-21.048889-41.642667-48.241778-45.738667-81.635555-3.754667-34.190222 4.721778-64.284444 25.315556-90.282667 20.593778-26.396444 47.786667-41.813333 81.635555-46.364444l14.791112-0.625778c28.103111 0 53.248 8.874667 75.491555 26.567111a113.208889 113.208889 0 0 1 45.738667 81.635555z m-111.900445 92.728889c21.447111-2.446222 38.968889-12.344889 52.565334-29.639111 13.596444-16.896 19.171556-36.295111 16.668444-58.140444a73.955556 73.955556 0 0 0-29.639111-52.565334c-16.952889-13.596444-36.522667-19.171556-58.766222-16.668444a75.548444 75.548444 0 0 0-52.565334 29.696 76.572444 76.572444 0 0 0-16.668444 58.083556c2.446222 20.195556 11.320889 36.920889 26.567111 50.062222 14.791111 13.255111 32.142222 19.854222 51.939556 19.854222 4.096 0 7.395556-0.227556 9.898666-0.625778zM152.746667 832.284444L66.787556 750.705778l36.465777-58.766222c-11.093333-15.644444-20.593778-38.343111-28.444444-68.039112l-67.982222-14.791111v-116.280889l68.608-16.668444c5.347556-17.351111 15.473778-39.367111 30.321777-66.161778l-43.292444-53.191111L145.92 270.222222l60.017778 37.717334c17.294222-8.248889 38.912-16.497778 64.853333-24.746667l11.776-71.111111 123.050667-0.568889 14.222222 67.356444a237.568 237.568 0 0 1 63.715556 27.192889l59.335111-38.286222 83.512889 84.707556-37.717334 56.263111c13.198222 20.593778 22.641778 43.064889 28.444445 67.413333l67.982222 14.222222V608.483556l-66.730667 13.596444c-4.152889 17.294222-13.653333 39.822222-28.444444 67.413333l37.717333 58.083556-82.887111 82.887111-57.457778-37.091556c-16.952889 10.695111-39.025778 19.342222-66.218666 25.941334L407.495111 889.173333H291.271111l-24.746667-67.356444c-17.749333-4.949333-37.319111-14.222222-58.766222-27.875556l-55.011555 38.343111zM121.742222 743.253333l35.271111 33.393778 50.688-35.271111 12.401778 9.329778c26.737778 18.545778 48.64 28.615111 65.536 30.264889l12.970667 1.877333L321.536 845.937778h50.688l12.401778-61.838222 13.596444-3.128889c13.994667-3.299556 27.648-7.395556 40.789334-12.344889 16.099556-6.200889 26.794667-11.776 32.199111-16.725334l12.344889-12.344888 55.637333 35.271111 32.768-32.824889-33.393778-51.939556 7.395556-11.093333c21.048889-36.693333 31.573333-61.667556 31.573333-74.808889v-17.976889l64.284444-12.970667v-47.616l-64.853333-13.596444-0.682667-16.668444c0-0.455111-1.649778-7.850667-4.949333-22.300445a164.522667 164.522667 0 0 0-25.941333-50.688l-8.647111-12.344889 34.019555-51.996444-34.019555-34.588445-54.442667 34.588445-12.344889-8.647111c-20.195556-15.246222-44.544-25.543111-72.988444-30.890667l-14.222223-2.503111-12.344888-61.212445-51.313778 0.625778-9.898667 60.586667-12.970667 4.323555c-40.846222 12.8-66.787556 23.096889-77.937777 30.947556l-11.776 8.647111-53.76-34.019555-32.768 33.393777 37.717333 46.364445-7.395556 13.027555a562.346667 562.346667 0 0 0-22.300444 41.415111c-7.850667 17.294222-12.174222 29.468444-12.970667 36.465778l-1.877333 15.473778L50.062222 526.791111v47.672889l61.269334 12.970667 2.446222 13.653333c3.299556 15.644444 7.850667 30.72 13.653333 45.112889 5.688889 13.994667 10.467556 22.243556 14.222222 24.689778l17.863111 11.776-37.717333 60.586666z m70.542222-189.212444c0-41.642667 14.791111-77.312 44.487112-106.951111a147.911111 147.911111 0 0 1 107.576888-44.544c42.097778 0 77.937778 14.848 107.633778 44.544a145.863111 145.863111 0 0 1 44.487111 106.951111c0 42.097778-14.791111 77.937778-44.487111 107.576889a146.602667 146.602667 0 0 1-107.633778 44.544 147.911111 147.911111 0 0 1-107.576888-44.544 146.602667 146.602667 0 0 1-44.544-107.52z m152.064 108.828444c30.151111 0 55.694222-10.695111 76.686223-32.142222 21.447111-21.048889 32.142222-46.592 32.142222-76.686222 0-29.696-10.695111-55.182222-32.142222-76.686222-21.048889-21.048889-46.592-31.516444-76.686223-31.516445-30.094222 0-55.637333 10.524444-76.629333 31.516445A104.675556 104.675556 0 0 0 235.52 554.0977780000001c0 30.151111 10.752 55.637333 32.199111 76.686222 21.048889 21.447111 46.535111 32.142222 76.629333 32.142222z"  horiz-adv-x="1137" />
      
      <glyph glyph-name="xiaoshouyuan" unicode="&#58893;" d="M647.753142 423.009524A229.376 229.376 0 0 1 746.057142 685.933714 243.809524 243.809524 0 0 1 512 852.114286a243.809524 243.809524 0 0 1-234.057142-166.180572A229.376 229.376 0 0 1 376.246858 423.009524 380.732953 380.732953 0 0 1 82.895238 71.923809c0-104.545524 214.942476-156.038095 429.104762-156.038095s429.104762 51.492572 429.104762 156.038095a381.123047 381.123047 0 0 1-293.35162 351.085715z m-82.310095-305.444571L512 67.242667l-53.443047 51.102475L512 288.426667zM328.655238 618.057142A179.833905 179.833905 0 0 0 512 793.6 179.833905 179.833905 0 0 0 696.124953 618.057142 179.833905 179.833905 0 0 0 512 442.514286a186.855619 186.855619 0 0 0-129.901714 51.492572A170.471619 170.471619 0 0 0 328.655238 618.057142zM512-25.6c-223.914667 0-367.079619 58.514286-367.079619 97.523809a338.212572 338.212572 0 0 0 332.361143 312.076191L394.971428 117.564953a28.476953 28.476953 0 0 1 7.801905-29.257144l87.771429-83.480381a31.987809 31.987809 0 0 1 21.845333-8.582095 30.427428 30.427428 0 0 1 21.455238 8.582095l87.771429 86.601144a27.696762 27.696762 0 0 1 7.801905 29.257142L547.108572 384a338.602667 338.602667 0 0 0 332.751237-312.076191c0-39.009524-143.164953-97.523809-367.859809-97.523809z"  horiz-adv-x="1024" />
      
      <glyph glyph-name="yanfa" unicode="&#59671;" d="M512 798.252247v-258.907654H97.747753V798.252247h414.252247m51.781531 51.781531H45.966222v-362.470717h517.815309V850.033778zM149.529284 384h310.689185v-51.781531H149.529284zM563.781531 99.20158h414.252247v-51.78153H563.781531zM926.252247 384v-414.252247H615.563061V384h310.689186m51.781531 51.781531H563.781531v-517.815309h414.252247V435.781531zM201.310815 150.983111h-51.781531v-155.344592h155.344592v51.781531h-103.563061v103.563061zM874.470716 746.470716h-155.344592v-51.781531h103.563061v-103.563061h51.781531v155.344592z"  horiz-adv-x="1024" />
      
      <glyph glyph-name="jiazhi1" unicode="&#59023;" d="M510.189637-51.59959c-11.849155 0-23.681952 5.981833-29.625615 17.792818L290.928464 517.361614c-5.987286 11.843702 0 17.792818 5.981833 29.625614l195.584674 254.835903c5.981833 5.987286 11.843702 11.849155 23.681952 11.849155 11.832796 0 17.792818-5.981833 23.681951-11.849155l195.584674-254.835903c5.981833-5.981833 5.981833-17.792818 5.981833-29.625614l-201.495619-551.168386c-5.981833-11.843702-17.792818-17.792818-29.625614-17.792818h-0.114511zM350.17424 523.288918l160.031755-456.358786 165.964513 456.358786-160.037209 207.461093-165.959059-207.461093zM59.741796 546.998134h871.215538v-59.300305H59.741796V546.998134zM510.189637-51.59959c-5.981833 0-17.792818 5.981833-23.681952 11.849155L42.00896 493.663304c-5.981833 11.849155-11.849155 23.681952 0 35.558371L249.470053 807.799511c5.981833 5.987286 11.843702 11.849155 23.681952 11.849155h480.073455c11.849155 0 17.798271-5.981833 23.687405-11.849155l207.461093-278.572383c5.97638-11.843702 5.97638-23.681952 0-35.558371l-444.509631-539.324684c-11.843702 0-23.676499-5.987286-29.625614-5.987286l-0.049076 0.043623zM101.265641 511.467027l408.945807-485.995306 408.95126 491.889893-183.724613 243.019465H285.006613L101.287453 511.461574l-0.021812 0.005453z"  horiz-adv-x="1024" />
      
      <glyph glyph-name="dengpao" unicode="&#59193;" d="M341.333333-71.111111h284.444445v-56.888889H341.333333zM816.526222 785.635556l40.220445-40.163556-80.440889-80.497778-40.220445 40.220445zM150.584889 785.635556L230.968889 705.308444l-40.220445-40.220444-80.497777 80.440889zM853.333333 440.888889h113.777778v-56.888889h-113.777778zM0 440.888889h113.777778v-56.888889H0zM455.111111 896h56.888889v-113.777778H455.111111zM483.555556 725.333333C312.888889 725.333333 170.666667 583.111111 170.666667 412.444444c0-119.466667 56.888889-227.555556 170.666666-278.755555V-14.222222h284.444445v147.911111c113.777778 51.2 170.666667 159.288889 170.666666 278.755555 0 170.666667-142.222222 312.888889-312.888888 312.888889z m113.777777-540.444444l-28.444444-17.066667V42.666667H398.222222v125.155555l-28.444444 17.066667c-91.022222 45.511111-142.222222 130.844444-142.222222 227.555555C227.555556 554.666667 341.333333 668.444444 483.555556 668.444444S739.555556 554.666667 739.555556 412.444444c0-96.711111-51.2-182.044444-142.222223-227.555555zM341.333333 384h113.777778v-284.444444h56.888889V384h113.777778V440.888889H341.333333z"  horiz-adv-x="1024" />
      
      <glyph glyph-name="shiming" unicode="&#59032;" d="M869.292563 170.401185m-116.508444 0a116.508444 116.508444 0 1 1 233.016888 0 116.508444 116.508444 0 1 1-233.016888 0ZM503.067686 737.408948m-116.508445 0a116.508444 116.508444 0 1 1 233.016889 0 116.508444 116.508444 0 1 1-233.016889 0ZM154.707437 170.401185m-116.508444 0a116.508444 116.508444 0 1 1 233.016888 0 116.508444 116.508444 0 1 1-233.016888 0ZM118.330912 321.473801c-0.776723 10.226852-1.165084 20.453705-1.165085 30.810011 0 158.839846 96.184194 295.28418 233.534704 354.056218-2.071261 9.967945-3.106892 20.324251-3.106891 31.068918 0 13.592652 1.6829 26.667488 4.919245 39.22451-8.543953-2.977438-16.958451-6.213784-25.37295-9.838491-53.593884-22.65442-101.621254-55.14733-142.917025-96.443101-41.295771-41.295771-73.659228-89.452595-96.443102-142.917025-23.431143-55.535692-35.340895-114.437183-35.340894-175.151029 0-20.712612 1.423992-41.166317 4.142522-61.490568 17.735174 14.498829 38.836148 25.114042 61.749476 30.680557zM655.046479 705.822214C791.74972 646.791269 887.416099 510.735297 887.416099 352.283812c0-9.191222-0.388361-18.382443-1.035631-27.444211 22.913327-2.459623 44.273209-9.967945 63.044014-21.359882 1.6829 16.181728 2.589077 32.363457 2.589077 48.804093 0 60.713845-11.909752 119.615336-35.340895 175.151028-22.65442 53.593884-55.14733 101.621254-96.443102 142.917026s-89.452595 73.659228-142.917025 96.443101c-7.896683 3.3658-15.922821 6.472691-23.948958 9.320675 3.106892-12.298114 4.789792-25.37295 4.789792-38.706694 0.129454-10.744668-1.035631-21.359881-3.106892-31.586734zM756.797187 63.213416C688.963382 3.405748 599.899149-32.841323 502.290963-32.841323c-92.68894 0-177.740105 32.751818-244.149918 87.251879-17.087905-15.275552-37.671064-26.796942-60.19603-33.399087 38.188879-35.081987 81.555911-63.173468 129.324374-83.368265 55.535692-23.431143 114.437183-35.340895 175.151028-35.340895s119.615336 11.909752 175.151028 35.340895c49.969177 21.100974 95.148563 50.7459 134.502526 88.158056-21.100974 8.543953-39.871779 21.359881-55.276784 37.412156z"  horiz-adv-x="1024" />
      
      <glyph glyph-name="shangchuan" unicode="&#58923;" d="M823.502546 553.544905C795.159468 698.777747 667.639839 808.584163 511.777131 808.584163c-155.853018 0-283.372646-109.806416-311.715725-255.039258C93.801509 525.201826 15.875 426.025276 15.875 312.672341c0-138.149495 109.806416-247.965601 247.955911-247.9656h35.426425v70.852851h-35.426425c-99.17655 0-177.112749 77.926509-177.112749 177.112749 0 99.17655 77.926509 177.112749 177.112749 177.112749 0 138.149495 109.806416 247.955911 247.95591 247.955911s247.965601-109.806416 247.965601-247.955911c99.17655 0 177.112749-77.926509 177.112749-177.112749s-77.926509-177.112749-177.112749-177.112749h-35.426426v-70.852851h35.426426c138.149495 0 247.955911 109.816106 247.955911 247.9656-0.00969 113.352935-77.945889 212.529485-184.205787 240.872564z m0 0M543.666729 408.312063c-14.176384 10.629866-28.333389 14.176384-42.509773 7.083347-3.536829 0-7.083347-3.536829-10.629866-7.083347L384.257502 305.588994c-14.166694-14.176384-14.166694-35.426426 0-49.59312 14.176384-14.176384 38.963254-14.176384 53.139639 0l42.500083 38.963254v-301.095549c0-21.250041 17.713213-35.416736 35.426426-35.416736 21.250041 0 35.416736 17.703523 35.416736 35.416736V294.968818l42.509773-38.963254c14.166694-14.176384 38.963254-14.176384 53.129948 0 14.176384 14.166694 14.176384 35.416736 0 49.59312l-102.713378 102.713379z m0 0"  horiz-adv-x="1024" />
      
      <glyph glyph-name="didian" unicode="&#58993;" d="M512 353.464951c92.553441 0 167.843109 74.936927 167.843109 167.044609S604.553441 687.544505 512 687.544505s-167.850357-74.932095-167.850357-167.039777S419.446559 353.464951 512 353.464951z m0 267.261711c55.597781-0.061609 100.649572-44.903205 100.71118-100.223142 0-55.356177-45.09528-100.229182-100.71118-100.229181-55.621941 0-100.70514 44.873004-100.70514 100.229181 0 55.351345 45.083199 100.223142 100.70514 100.223142z m462.61741-680.701951L840.339057 107.064488a33.621533 33.621533 0 0 1-26.211556 12.536802h-67.139176c-18.543063 0-33.572004-14.955252-33.572004-33.405298s15.028941-33.405298 33.572004-33.405298h51.002483l80.572327-100.229182H145.436865l80.572327 100.229182h51.002483c18.535815 0 33.565964 14.961292 33.565964 33.405298s-15.030149 33.405298-33.565964 33.405298h-67.139176a33.621533 33.621533 0 0 1-26.211556-12.536802L49.377758-59.975289a33.30624 33.30624 0 0 1-7.348368-20.874536c0-18.450046 15.028941-33.405298 33.572004-33.405298h872.809292a33.671062 33.671062 0 0 1 20.973594 7.31696 33.31228 33.31228 0 0 1 5.23313 46.962874zM251.17702 260.360654l0.042281-0.0302 237.049202-235.910042c6.290145-6.265985 14.830826-9.784939 23.737537-9.784939s17.442559 3.512914 23.737537 9.784939l237.376575 236.231374 0.259723 0.265764c144.210669 143.659814 144.092284 376.459212-0.259723 519.97648-144.358048 143.512436-378.277277 143.39405-522.487947-0.265764-144.210669-143.659814-144.086244-376.465252 0.265764-519.97648 0.080937-0.099057 0.179995-0.192075 0.277843-0.289924z m47.18515 472.747842c117.987034 117.42289 309.283795 117.42289 427.27566 0 117.979785-117.416849 117.979785-307.791894 0-425.215992L512 95.288737 298.36217 307.892504c-117.985826 117.424098-117.985826 307.799142 0 425.215992z"  horiz-adv-x="1024" />
      
      <glyph glyph-name="zuo-6-copy" unicode="&#59912;" d="M467.076677 384l445.287265-445.287265a30.353596 30.353596 0 0 0 8.802542-21.551054 30.353596 30.353596 0 0 0-51.90465-21.247517L423.974569 341.201429a60.707194 60.707194 0 0 0 0 85.597142L869.261834 872.085836a30.353596 30.353596 0 0 0 51.90465-21.247517 30.353596 30.353596 0 0 0-8.802542-21.551054zM163.540708 384l445.287265-445.287265a30.353596 30.353596 0 0 0 8.802544-21.551054 30.353596 30.353596 0 0 0-51.904651-21.247517L120.438601 341.201429a60.707194 60.707194 0 0 0 0 85.597142L565.725866 872.085836a30.353596 30.353596 0 0 0 51.904651-21.247517 30.353596 30.353596 0 0 0-8.802544-21.551054z"  horiz-adv-x="1024" />
      
      <glyph glyph-name="zuo-6" unicode="&#59154;" d="M556.646536 384l-442.54371 442.54371a30.166578 30.166578 0 0 0-8.748307 21.418272 30.166578 30.166578 0 0 0 51.584849 21.116604L599.483079 426.534876a60.333158 60.333158 0 0 0 0-85.069752L156.939368-101.078586a30.166578 30.166578 0 0 0-51.584849 21.116604 30.166578 30.166578 0 0 0 8.748307 21.418272zM858.312325 384l-442.543711 442.54371a30.166578 30.166578 0 0 0-8.748308 21.418272 30.166578 30.166578 0 0 0 51.58485 21.116604L901.148866 426.534876a60.333158 60.333158 0 0 0 0-85.069752L458.605156-101.078586a30.166578 30.166578 0 0 0-51.58485 21.116604 30.166578 30.166578 0 0 0 8.748308 21.418272z"  horiz-adv-x="1024" />
      
      <glyph glyph-name="guanbi" unicode="&#58914;" d="M716.253867 571.869867c-10.922667 10.922667-29.4912 10.922667-40.413867 0L520.738133 416.768 364.544 571.869867c-10.922667 10.922667-29.4912 10.922667-40.413867 0s-10.922667-29.4912 0-40.413867L479.232 375.261867 324.130133 220.16c-10.922667-10.922667-10.922667-29.4912 0-40.413867s29.4912-10.922667 40.413867 0l155.101867 155.101867L675.84 179.746133c10.922667-10.922667 29.4912-10.922667 40.413867 0s10.922667 29.4912 0 40.413867L561.152 375.261867l155.101867 155.101866c12.014933 12.014933 12.014933 30.583467 0 41.506134zM517.461333 872.2432C245.486933 872.2432 23.7568 650.513067 23.7568 378.538667s221.730133-493.704533 493.704533-493.704534 493.704533 221.730133 493.704534 493.704534S789.435733 872.2432 517.461333 872.2432z m0-930.6112c-241.390933 0-437.998933 196.608-437.998933 437.998933s196.608 437.998933 437.998933 437.998934 437.998933-196.608 437.998934-437.998934c-1.092267-242.4832-196.608-437.998933-437.998934-437.998933z"  horiz-adv-x="1024" />
      
      <glyph glyph-name="liebiao" unicode="&#58892;" d="M920.967618 656.645079H103.032382c-27.264508 0-45.440847 18.176339-45.440847 45.440847 0 22.720423 18.176339 45.440847 45.440847 45.440846h817.935236c22.720423 0 45.440847-18.176339 45.440847-45.440846s-18.176339-45.440847-45.440847-45.440847zM920.967618 338.559153H103.032382c-22.720423 0-45.440847 18.176339-45.440847 45.440847 0 22.720423 18.176339 45.440847 45.440847 45.440847h817.935236c22.720423 0 45.440847-18.176339 45.440847-45.440847s-18.176339-45.440847-45.440847-45.440847zM920.967618 20.473228H103.032382c-22.720423 0-45.440847 18.176339-45.440847 45.440846 0 22.720423 18.176339 45.440847 45.440847 45.440847h817.935236c22.720423 0 45.440847-18.176339 45.440847-45.440847s-18.176339-45.440847-45.440847-45.440846z"  horiz-adv-x="1024" />
      
      <glyph glyph-name="diqiu" unicode="&#59460;" d="M512-97.602456c-265.483354 0-481.602456 216.119103-481.602456 481.602456s216.119103 481.602456 481.602456 481.602456 481.602456-216.119103 481.602456-481.602456-216.119103-481.602456-481.602456-481.602456z m0 915.044666c-238.995219 0-433.44221-194.446991-433.44221-433.44221s194.446991-433.44221 433.44221-433.44221 433.44221 194.446991 433.44221 433.44221-194.446991 433.44221-433.44221 433.44221zM512-97.602456c-13.244068 0-24.080123 10.836056-24.080123 24.080123V841.522333c0 13.244068 10.836056 24.080123 24.080123 24.080123s24.080123-10.836056 24.080123-24.080123v-915.044666c0-13.244068-10.836056-24.080123-24.080123-24.080123zM969.522333 359.919877H54.477667c-13.244068 0-24.080123 10.836056-24.080123 24.080123s10.836056 24.080123 24.080123 24.080123h915.044666c13.244068 0 24.080123-10.836056 24.080123-24.080123s-10.836056-24.080123-24.080123-24.080123zM184.51033 40.85825c-6.020031 0-12.642065 2.408012-17.458089 7.224036C79.159793 138.382747 30.397544 258.181358 30.397544 384s48.762248 245.617253 136.654697 335.917714c9.030046 9.63205 24.682126 9.63205 34.314175 0.602003 9.63205-9.030046 9.63205-24.682126 0.602003-34.314176C122.504013 604.935127 78.55779 497.77858 78.55779 384s43.946225-220.935127 122.808626-302.205541c9.030046-9.63205 9.030046-24.682126-0.602003-34.314176-4.214022-4.214022-10.234053-6.622034-16.254083-6.622033zM502.969954-97.602456c-0.602003 0-0.602003 0 0 0-127.624651 2.408012-246.821259 54.180276-335.917713 145.684742-9.030046 9.63205-9.030046 24.080123 0 33.712173 45.15023 46.354236 97.524498 82.47442 156.520798 107.156547 6.020031 2.408012 12.642065 2.408012 18.662096 0s10.836056-7.224037 13.244066-13.244068c34.314175-88.494451 90.902464-168.560859 163.142833-230.567176 7.82604-6.622034 10.234053-17.458089 6.622034-27.090138-3.612019-9.030046-12.642065-15.652079-22.274114-15.65208z m-284.145449 162.540829c61.404313-56.588288 136.052693-93.310476 217.323109-107.75855-48.762248 51.772264-87.892448 111.972571-116.186593 176.988902-36.722188-18.060092-71.036363-40.936209-101.136516-69.230352zM332.603085 577.242985c-3.010015 0-6.622034 0.602003-9.632049 1.806009-58.996301 25.284129-111.370568 61.404313-156.520798 107.156547-9.030046 9.63205-9.030046 24.080123 0 33.712173C256.148696 811.42218 374.7433 862.592441 502.36795 865.602456c10.234053 0.602003 19.264098-6.020031 22.876118-15.65208s0.602003-20.468104-6.622034-27.090138C445.779662 760.853922 389.191374 681.389517 354.877198 592.293062c-2.408012-6.020031-7.224037-10.836056-13.244067-13.244068-2.408012-1.204006-6.020031-1.806009-9.030046-1.806009zM218.824505 703.061627c30.702157-28.294144 64.414329-51.170261 101.136516-69.832355 28.294144 65.016332 68.026347 125.216639 116.186593 176.988902-81.270414-13.846071-155.918795-50.568258-217.323109-107.156547zM839.48967 40.85825c-6.020031 0-12.040062 2.408012-16.856086 6.622033-9.63205 9.030046-9.63205 24.682126-0.602003 34.314176C901.495987 163.064873 945.44221 270.22142 945.44221 384s-43.946225 220.935127-122.808626 302.205541c-9.030046 9.63205-9.030046 24.682126 0.602003 34.314176 9.63205 9.030046 24.682126 9.030046 34.314175-0.602003C944.840207 629.617253 993.602456 509.818642 993.602456 384s-48.762248-245.617253-136.654697-335.917714c-4.816025-4.816025-10.836056-7.224037-17.458089-7.224036zM515.010015-97.602456c-10.234053 0-19.264098 6.020031-22.274113 15.65208-3.612019 9.63205-0.602003 19.866101 6.622033 26.488135 73.444375 62.608319 130.032664 143.27673 164.346839 232.975188 2.408012 6.020031 7.224037 10.836056 13.244067 13.244068 6.020031 2.408012 12.642065 2.408012 18.662096 0 60.80231-25.284129 115.584589-62.006316 161.938825-109.56456 9.030046-9.63205 9.030046-24.080123 0-33.712172-90.902464-92.708473-212.507084-143.878734-342.539747-145.082739z m184.21294 234.781197c-28.896147-66.822341-68.62835-128.226654-118.594605-181.202923 83.678427 13.244068 161.336823 50.568258 224.547145 108.962555-31.906163 29.49815-67.424344 53.578273-105.95254 72.240368zM685.978887 574.834974c-3.010015 0-6.622034 0.602003-9.632049 1.806008-6.020031 2.408012-10.836056 7.224037-13.244067 13.244068-34.314175 89.698458-90.902464 170.366869-164.346839 232.975188-7.82604 6.622034-10.234053 17.458089-6.622033 26.488135 3.612019 9.63205 12.642065 15.652079 22.274113 15.65208 130.032664-0.602003 251.03528-52.374267 341.937744-145.684743 9.030046-9.63205 9.030046-24.080123 0-33.712172-46.354236-47.558242-100.534513-84.28043-161.938826-109.564559-1.806009-0.602003-5.418028-1.204006-8.428043-1.204005z m-105.350537 237.189208c49.364251-52.97627 89.698458-114.380583 118.594605-181.202923 38.528197 18.662095 74.64838 42.742218 105.95254 72.240368-63.210323 58.394298-140.868718 95.718488-224.547145 108.962555zM332.603085 142.596769c-3.010015 0-6.622034 0.602003-9.632049 1.806009-6.020031 2.408012-10.836056 7.224037-13.244067 13.244068-27.692141 72.240369-42.140215 148.092755-42.140216 225.751151s13.846071 153.510783 42.140216 225.751151c2.408012 6.020031 7.224037 10.836056 13.244067 13.244068s12.642065 2.408012 18.662095 0c54.180276-22.274113 111.370568-33.712172 170.366869-33.712172 57.190292 0 112.574574 10.836056 164.948841 32.508166 6.020031 2.408012 12.642065 2.408012 18.662096 0s10.836056-7.224037 13.244067-13.244068c27.090138-71.638366 40.936209-146.888749 40.936209-223.343139 0-77.056393-13.846071-152.306777-40.936209-223.343138-2.408012-6.020031-7.224037-10.836056-13.244067-13.244068-6.020031-2.408012-12.642065-2.408012-18.662096 0-52.374267 21.67211-107.758549 32.508166-164.948841 32.508165-58.996301 0-116.186592-11.438059-169.764865-34.314175-3.010015-3.010015-6.622034-3.612019-9.63205-3.612018z m14.448074 426.820177c-20.468104-59.598304-30.702157-122.206623-30.702156-185.416946s10.234053-125.818642 30.702156-185.416946c52.97627 19.264098 108.360552 28.896147 164.948841 28.896147 54.782279 0 108.360552-9.030046 159.530814-27.090138 19.866101 58.996301 30.100154 121.002617 30.100154 183.610937 0 63.210323-10.234053 124.614636-30.100154 183.610937-51.170261-18.060092-104.748534-27.090138-159.530814-27.090138-57.190292 0-112.574574 9.63205-164.948841 28.896147z"  horiz-adv-x="1024" />
      
      <glyph glyph-name="yonghutouxiang" unicode="&#59473;" d="M981.338268-44.812133c-15.968907 190.486253-146.404017 348.028248-322.732962 405.328446 73.872971 47.839626 122.92033 130.502206 122.92033 224.839533C781.592732 733.504366 661.087867 853.673749 512.53677 853.673749 363.918576 853.673749 243.413712 733.504366 243.413712 585.355846c0-94.337327 49.047359-176.999907 122.920329-224.90663-176.328945-57.233101-306.696958-214.775096-322.732962-405.261349-0.201289-3.623197-0.670963-5.703181 0-10.668304C44.943004-72.254499 59.771276-85.673749 76.612434-85.673749c18.78695 0 33.615221 15.365041 33.615222 33.548125 17.512121 207.327412 191.09012 368.962278 402.309114 368.962278 211.151898 0 384.729897-161.634866 402.242018-368.962278 0-18.183084 14.828271-33.548125 33.615221-33.548125 16.841159 0 31.66943 13.41925 32.944259 30.193312C982.009231-50.515314 981.606653-48.368234 981.338268-44.812133zM310.71125 585.355846C310.71125 696.467236 401.089899 786.577499 512.53677 786.577499s201.758423-90.110264 201.758423-201.221653c0-111.178486-90.311552-201.28875-201.758423-201.28875S310.71125 474.17736 310.71125 585.355846z"  horiz-adv-x="1024" />
      
      <glyph glyph-name="zuozuo--copy" unicode="&#59911;" d="M437.305892-94.808382a70.863641 70.863641 0 0 0 0 95.761676l383.046706 383.046706-383.046706 383.046706a70.863641 70.863641 0 0 0 95.761677 95.761676L969.740813 434.753688A75.651724 75.651724 0 0 0 990.808382 384a70.863641 70.863641 0 0 0-21.067569-49.796072L537.855653-94.808382a70.863641 70.863641 0 0 0-100.549761 0zM54.259187-94.808382a70.863641 70.863641 0 0 0 0 95.761676l383.046705 383.046706-383.046705 383.046706a70.863641 70.863641 0 0 0 95.761676 95.761676L586.694108 434.753688A75.651724 75.651724 0 0 0 607.761676 384a70.863641 70.863641 0 0 0-21.067568-49.796072L154.808947-94.808382a70.863641 70.863641 0 0 0-100.54976 0z"  horiz-adv-x="1024" />
      
      <glyph glyph-name="zuozuo-" unicode="&#58945;" d="M586.694108 862.808382a70.863641 70.863641 0 0 0 0-95.761676l-383.046706-383.046706 383.046706-383.046706a70.863641 70.863641 0 0 0-95.761677-95.761676L54.259187 333.246312A75.651724 75.651724 0 0 0 33.191618 384a70.863641 70.863641 0 0 0 21.067569 49.796072L486.144347 862.808382a70.863641 70.863641 0 0 0 100.549761 0zM969.740813 862.808382a70.863641 70.863641 0 0 0 0-95.761676l-383.046705-383.046706 383.046705-383.046706a70.863641 70.863641 0 0 0-95.761676-95.761676L437.305892 333.246312A75.651724 75.651724 0 0 0 416.238324 384a70.863641 70.863641 0 0 0 21.067568 49.796072L869.191053 862.808382a70.863641 70.863641 0 0 0 100.54976 0z"  horiz-adv-x="1024" />
      
      <glyph glyph-name="youjiantou" unicode="&#58916;" d="M885.113 406.627L628.338 663.401c-12.496 12.497-32.758 12.497-45.254 0-12.497-12.497-12.497-32.758 0-45.255l203.3-203.3H158.025c-17.036 0-30.846-13.811-30.846-30.846 0-17.036 13.811-30.846 30.846-30.846h628.36L583.084 149.853c-12.497-12.496-12.497-32.758 0-45.255 6.248-6.248 14.438-9.372 22.627-9.372s16.379 3.124 22.627 9.372l256.775 256.775a31.999 31.999 0 0 1 0 45.254z"  horiz-adv-x="1024" />
      
      <glyph glyph-name="xiala" unicode="&#58922;" d="M142.805333 630.826667A58.666667 58.666667 0 1 1 59.861333 547.84l410.666667-410.666667a58.666667 58.666667 0 0 1 82.944 0l410.666667 410.666667a58.666667 58.666667 0 1 1-82.944 82.986667L512 261.632 142.805333 630.826667z"  horiz-adv-x="1024" />
      
      <glyph glyph-name="24gl-newspaper" unicode="&#59566;" d="M885.333333-85.33333300000004H181.333333a53.393333 53.393333 0 0 0-53.333333 53.333333V800a53.393333 53.393333 0 0 0 53.333333 53.333333h704a53.393333 53.393333 0 0 0 53.333334-53.333333v-832a53.393333 53.393333 0 0 0-53.333334-53.333333zM181.333333 810.666667a10.666667 10.666667 0 0 1-10.666666-10.666667v-832a10.666667 10.666667 0 0 1 10.666666-10.666667h704a10.666667 10.666667 0 0 1 10.666667 10.666667V800a10.666667 10.666667 0 0 1-10.666667 10.666667z m565.333334-725.333334H320a21.333333 21.333333 0 0 0 0 42.666667h426.666667a21.333333 21.333333 0 0 0 0-42.666667z m0 170.666667H320a21.333333 21.333333 0 0 0 0 42.666667h426.666667a21.333333 21.333333 0 0 0 0-42.666667z m0 213.333333H618.666667a21.333333 21.333333 0 0 0 0 42.666667h128a21.333333 21.333333 0 0 0 0-42.666667z m0 170.666667H618.666667a21.333333 21.333333 0 0 0 0 42.666667h128a21.333333 21.333333 0 0 0 0-42.666667zM497.726667 427.866667A21.333333 21.333333 0 0 1 512 448V661.333333a21.333333 21.333333 0 0 1-42.666667 0v-152.52L336.666667 674.666667a21.333333 21.333333 0 0 1-38-13.333334v-213.333333a21.333333 21.333333 0 0 1 42.666666 0V600.52L474 434.666667a21.333333 21.333333 0 0 1 23.72-6.806667z"  horiz-adv-x="1024" />
      
      <glyph glyph-name="gonggao" unicode="&#58931;" d="M588.7744 762.88c4.608 0 8.192-2.22208 9.18528-3.33824v-751.08352c-0.99328-1.11616-4.57216-3.33824-9.18528-3.33824-3.7376 0-5.8368 1.49504-7.2448 2.79552l-235.60192 217.728-20.59776 19.03616H164.1984V523.32032h161.13152l20.59776 19.03616 235.60192 217.728c1.408 1.30048 3.5072 2.79552 7.2448 2.79552m0 71.68c-19.59424 0-39.57248-6.75328-55.89504-21.83168L297.27744 595.00032h-144.5376c-33.25952 0-60.22144-25.1904-60.22144-56.2688v-309.46304c0-31.07328 26.96192-56.2688 60.22144-56.2688h144.5376l235.60192-217.728c16.31744-15.0784 36.30592-21.83168 55.89504-21.83168 41.2928 0 80.86528 29.9776 80.86528 75.17184V759.38816C669.6448 804.5824 630.0672 834.56 588.7744 834.56zM895.6416 358.4h-133.12a35.84 35.84 0 1 0 0 71.68h133.12a35.84 35.84 0 1 0 0-71.68zM906.28096 632.00256l-115.28704-66.56a35.84 35.84 0 1 0-35.84 62.07488l115.28704 66.56a35.84 35.84 0 1 0 35.84-62.07488zM870.44096 99.52256l-115.28704 66.56a35.84 35.84 0 1 0 35.84 62.07488l115.28704-66.56a35.84 35.84 0 1 0-35.84-62.07488z"  horiz-adv-x="1024" />
      
      <glyph glyph-name="jiantou" unicode="&#58882;" d="M801.840856 384c0-21.99526-6.284361-43.990521-21.99526-59.70142l-345.639801-408.483401c-34.563981-40.84834-94.2654-43.990521-131.97156-12.56872-40.84834 34.563981-43.990521 94.2654-12.56872 131.97156L585.030435 384l-295.36492 348.781981c-34.563981 40.84834-28.27962 100.549761 12.56872 131.97156 40.84834 34.563981 100.549761 28.27962 131.97156-12.56872l345.639801-408.483401c15.710901-15.710901 21.99526-37.70616 21.99526-59.70142z"  horiz-adv-x="1024" />
      
      <glyph glyph-name="jiantou-copy" unicode="&#59910;" d="M222.159144 384c0 21.99526 6.284361 43.990521 21.99526 59.70142l345.639801 408.483401c34.563981 40.84834 94.2654 43.990521 131.97156 12.56872 40.84834-34.563981 43.990521-94.2654 12.56872-131.97156L438.969565 384l295.36492-348.781981c34.563981-40.84834 28.27962-100.549761-12.56872-131.97156-40.84834-34.563981-100.549761-28.27962-131.97156 12.56872l-345.639801 408.483401c-15.710901 15.710901-21.99526 37.70616-21.99526 59.70142z"  horiz-adv-x="1024" />
      
      <glyph glyph-name="guanshui" unicode="&#58992;" d="M498.752-64c-247.104 0-448.064 200.96-448.064 448s201.024 448 448.064 448 448.064-200.96 448.064-448c0-72-17.472-143.552-50.624-206.976l-45.44 23.68c29.76 56.96 44.8 118.656 44.8 183.296 0 218.816-178.048 396.8-396.864 396.8C279.936 780.8 101.888 602.816 101.888 384c0-218.816 178.048-396.8 396.864-396.8 89.152 0 173.376 28.864 243.584 83.456l31.488-40.384C694.528-31.424 599.424-64 498.752-64zM498.752 526.016c-47.616 0-86.4 38.784-86.4 86.4s38.784 86.4 86.4 86.4 86.4-38.784 86.4-86.4S546.432 526.016 498.752 526.016zM498.752 647.616c-19.392 0-35.2-15.808-35.2-35.2s15.808-35.2 35.2-35.2 35.2 15.808 35.2 35.2S518.208 647.616 498.752 647.616zM473.152 573.12l51.2 0 0-435.264-51.2 0 0 435.264ZM374.272 521.984l249.024 0 0-51.2-249.024 0 0 51.2ZM498.752 110.72c-128.64 0-233.344 104.64-233.344 233.28l51.2 0c0-100.416 81.728-182.08 182.144-182.08s182.144 81.664 182.144 182.08l51.2 0C732.16 215.36 627.456 110.72 498.752 110.72zM230.528 253.312 194.368 289.6 300.288 395.072 404.736 293.568 369.024 256.832 300.736 323.264ZM625.472 253.312 589.376 289.6 695.232 395.072 799.68 293.568 763.968 256.832 695.68 323.264ZM498.752-64c-247.104 0-448.064 200.96-448.064 448s201.024 448 448.064 448 448.064-200.96 448.064-448c0-72-17.472-143.552-50.624-206.976l-45.44 23.68c29.76 56.96 44.8 118.656 44.8 183.296 0 218.816-178.048 396.8-396.864 396.8C279.936 780.8 101.888 602.816 101.888 384c0-218.816 178.048-396.8 396.864-396.8 89.152 0 173.376 28.864 243.584 83.456l31.488-40.384C694.528-31.424 599.424-64 498.752-64zM498.752 526.016c-47.616 0-86.4 38.784-86.4 86.4s38.784 86.4 86.4 86.4 86.4-38.784 86.4-86.4S546.432 526.016 498.752 526.016zM498.752 647.616c-19.392 0-35.2-15.808-35.2-35.2s15.808-35.2 35.2-35.2 35.2 15.808 35.2 35.2S518.208 647.616 498.752 647.616zM473.152 573.12l51.2 0 0-435.264-51.2 0 0 435.264ZM374.272 521.984l249.024 0 0-51.2-249.024 0 0 51.2ZM498.752 110.72c-128.64 0-233.344 104.64-233.344 233.28l51.2 0c0-100.416 81.728-182.08 182.144-182.08s182.144 81.664 182.144 182.08l51.2 0C732.16 215.36 627.456 110.72 498.752 110.72zM230.528 253.312 194.368 289.6 300.288 395.072 404.736 293.568 369.024 256.832 300.736 323.264ZM625.472 253.312 589.376 289.6 695.232 395.072 799.68 293.568 763.968 256.832 695.68 323.264ZM498.752-64c-247.104 0-448.064 200.96-448.064 448s201.024 448 448.064 448 448.064-200.96 448.064-448c0-72-17.472-143.552-50.624-206.976l-45.44 23.68c29.76 56.96 44.8 118.656 44.8 183.296 0 218.816-178.048 396.8-396.864 396.8C279.936 780.8 101.888 602.816 101.888 384c0-218.816 178.048-396.8 396.864-396.8 89.152 0 173.376 28.864 243.584 83.456l31.488-40.384C694.528-31.424 599.424-64 498.752-64zM498.752 526.016c-47.616 0-86.4 38.784-86.4 86.4s38.784 86.4 86.4 86.4 86.4-38.784 86.4-86.4S546.432 526.016 498.752 526.016zM498.752 647.616c-19.392 0-35.2-15.808-35.2-35.2s15.808-35.2 35.2-35.2 35.2 15.808 35.2 35.2S518.208 647.616 498.752 647.616zM473.152 573.12l51.2 0 0-435.264-51.2 0 0 435.264ZM374.272 521.984l249.024 0 0-51.2-249.024 0 0 51.2ZM498.752 110.72c-128.64 0-233.344 104.64-233.344 233.28l51.2 0c0-100.416 81.728-182.08 182.144-182.08s182.144 81.664 182.144 182.08l51.2 0C732.16 215.36 627.456 110.72 498.752 110.72zM230.528 253.312 194.368 289.6 300.288 395.072 404.736 293.568 369.024 256.832 300.736 323.264ZM625.472 253.312 589.376 289.6 695.232 395.072 799.68 293.568 763.968 256.832 695.68 323.264ZM498.752-64c-247.104 0-448.064 200.96-448.064 448s201.024 448 448.064 448 448.064-200.96 448.064-448c0-72-17.472-143.552-50.624-206.976l-45.44 23.68c29.76 56.96 44.8 118.656 44.8 183.296 0 218.816-178.048 396.8-396.864 396.8C279.936 780.8 101.888 602.816 101.888 384c0-218.816 178.048-396.8 396.864-396.8 89.152 0 173.376 28.864 243.584 83.456l31.488-40.384C694.528-31.424 599.424-64 498.752-64zM498.752 526.016c-47.616 0-86.4 38.784-86.4 86.4s38.784 86.4 86.4 86.4 86.4-38.784 86.4-86.4S546.432 526.016 498.752 526.016zM498.752 647.616c-19.392 0-35.2-15.808-35.2-35.2s15.808-35.2 35.2-35.2 35.2 15.808 35.2 35.2S518.208 647.616 498.752 647.616zM473.152 573.12l51.2 0 0-435.264-51.2 0 0 435.264ZM374.272 521.984l249.024 0 0-51.2-249.024 0 0 51.2ZM498.752 110.72c-128.64 0-233.344 104.64-233.344 233.28l51.2 0c0-100.416 81.728-182.08 182.144-182.08s182.144 81.664 182.144 182.08l51.2 0C732.16 215.36 627.456 110.72 498.752 110.72zM230.528 253.312 194.368 289.6 300.288 395.072 404.736 293.568 369.024 256.832 300.736 323.264ZM625.472 253.312 589.376 289.6 695.232 395.072 799.68 293.568 763.968 256.832 695.68 323.264Z"  horiz-adv-x="1024" />
      
      <glyph glyph-name="sousuo" unicode="&#58891;" d="M928.783 1.041L761.478 170.4a38.529 38.529 0 0 1-6.06 4.993c66.309 69.825 107.128 164.078 107.128 267.743 0 214.607-174.598 389.205-389.205 389.205S84.136 657.743 84.136 443.136 258.734 53.93 473.341 53.93c84.392 0 162.533 27.086 226.368 72.902 1.794-3.73 4.065-7.292 7.137-10.401l167.305-169.359c14.902-15.087 39.215-15.235 54.3-0.332 15.087 14.903 15.236 39.214 0.332 54.301zM150.86 443.136c0 177.824 144.657 322.481 322.481 322.481S795.822 620.96 795.822 443.136 651.165 120.655 473.341 120.655 150.86 265.312 150.86 443.136z"  horiz-adv-x="1024" />
      
      <glyph glyph-name="yunjia" unicode="&#58930;" d="M887.68 266.24v-165.952c0-46.656-43.008-102.272-85.632-102.272H239.296c-50.176 0-82.112 38.528-85.568 102.656V266.304c0.32 171.2 116.672 318.272 278.592 358.592L325.312 730.752a25.344 25.344 0 0 0 17.92 43.328h354.944a25.344 25.344 0 0 0 17.92-43.392L609.024 624.896c161.92-40.32 278.272-187.392 278.592-358.592zM491.392 634.624c9.6 0.768 19.328 1.152 29.248 1.152 9.856 0 19.584-0.384 24.256-3.008l91.648 90.688H404.48l86.912-88.832z m305.28-585.856c21.568 0 41.088 32.64 40.32 51.584V266.24c0 176-141.568 318.4-316.352 318.72-174.72-0.32-316.288-142.784-316.288-318.72v-165.888c-0.832-22.016 15.36-51.712 40.32-51.712h552zM605.12 320.32c42.24-17.28 63.872-42.688 63.872-75.84 0-32.896-15.104-57.984-44.928-74.624-19.84-10.496-44.48-16.96-73.792-19.392v-33.472l-6.4-6.4h-46.784l-6.4 6.4v33.664c-31.36 3.328-56.448 12.352-75.2 27.264-23.936 18.56-37.888 46.208-41.792 82.432l6.4 7.04h45.44l6.4-5.568c3.2-24.32 11.392-41.728 24.64-52.544 8.384-6.912 19.712-11.776 34.112-14.464V305.088a4019.84 4019.84 0 0 1-46.72 13.184c-42.24 16.64-64.128 41.856-64.128 75.328 0 31.168 14.592 55.04 43.072 70.528a161.216 161.216 0 0 0 67.776 20.096v30.656l6.4 6.4h46.848l6.4-6.4v-31.04c26.752-3.136 49.088-10.432 67.008-21.952 23.936-15.872 38.976-40.064 44.864-72.32l-6.272-7.488h-44.928l-6.336 5.248c-3.456 18.88-12.352 32.768-26.88 41.92a84.032 84.032 0 0 1-27.52 10.56v-103.424c29.696-8.384 47.872-13.76 54.848-16zM490.624 440.768c-11.84-1.792-21.76-5.12-30.08-9.984a38.784 38.784 0 0 1-21.888-37.12c0-15.36 16.832-29.184 52.032-40.512V440.768z m119.616-197.12c0 17.6-17.728 32.32-54.912 43.52l-5.056 1.408v-94.08c15.616 2.304 28.352 6.4 38.272 12.224 14.592 9.088 21.632 21.12 21.696 36.864z"  horiz-adv-x="1024" />
      
      <glyph glyph-name="locus" unicode="&#59909;" d="M816 272h-1 1zM1024-96c0-17.7-14.3-32-32-32H240.3v0.6l-0.3-0.6h-1c-35.9 0-69.8 14-95.6 39.5-26 25.9-40.4 60.1-40.4 96.5s14.4 70.6 40.4 96.5c26 25.8 60.3 39.8 96.6 39.5h575c17.3 0 32 14.7 32 32 0 17.4-14.7 32-32 32H432l48 64h336c52.5-0.5 95-43.4 95-96s-42.5-95.5-95-96H239c-18.9 0-36.9-7.4-50.5-21-13.8-13.7-21.5-31.8-21.5-51s7.6-37.3 21.5-51c13.7-13.6 31.6-21 50.5-21h0.7l0.3-0.6v0.6h752c17.7 0 32-14.3 32-32zM240.3-128h-0.3l0.3 0.6zM816 80h-1 1zM288.4 831.6c59.7 0 115.9-23.3 158.1-65.5C488.8 723.8 512 667.7 512 608c0-49.8-16.3-97.1-47-137l-0.3-0.4-0.3-0.4-176-236.4-181.1 243c-27.9 38.5-42.6 83.9-42.6 131.3 0 59.7 23.3 115.9 65.5 158.1 42.3 42.1 98.4 65.4 158.2 65.4m0 64C129.5 895.6 0.7 766.7 0.7 607.9c0-63.1 20.4-121.5 55-169.2l232.7-312.3 227.3 305.3c37.7 48.8 60.4 109.6 60.4 176.1C576 766.7 447.2 895.6 288.4 895.6zM288 684.2c44.1 0 80-35.9 80-80s-35.9-80-80-80-80 35.9-80 80 35.9 80 80 80m0 64c-79.5 0-144-64.5-144-144s64.5-144 144-144 144 64.5 144 144-64.5 144-144 144z"  horiz-adv-x="1024" />
      
      <glyph glyph-name="shizhong" unicode="&#58976;" d="M718.30368 146.56l-236.16 229.12V709.12h64v-306.56l216.64-209.92-44.48-46.08zM516.70368-122.56a512 512 0 0 0-362.88 149.76l45.44 45.12a448 448 0 0 1 563.84-56.96l35.2-53.44a512 512 0 0 0-281.6-84.48zM942.94368 106.88l-53.12 35.2A448 448 0 0 1 832.54368 705.92l45.44 45.12a512 512 0 0 0 64.96-644.16zM1027.74368 388.8h-64A451.2 451.2 0 0 1 602.14368 828.16l12.8 64a515.2 515.2 0 0 0 412.8-503.36zM512.54368-122.88A512 512 0 0 0 410.14368 890.88l12.8-64A448 448 0 0 1 512.54368-58.88z"  horiz-adv-x="1027" />
      
      <glyph glyph-name="icon-mail" unicode="&#58881;" d="M781.803573 777.552471L241.923911 777.552471c-99.38082 0-179.924811-82.365256-179.924811-183.901015l0-363.55331c0-101.535759 80.543991-183.12664 179.924811-183.126641l539.878762 0c99.434783 0 179.975177 81.591781 179.975177 183.126641L961.77785 593.651456C961.77875 695.186316 881.237457 777.552471 781.803573 777.552471zM685.833241 409.997774l219.539352 131.909066 0-260.672964L685.833241 409.997774zM241.923911 721.476391l539.878762 0c64.149906 0 117.224721-51.51977 123.032984-116.068106L511.890275 369.258994 118.691264 605.561182C124.596659 670.038466 177.875636 721.476391 241.923911 721.476391zM118.139038 542.066931l219.807371-132.070057L118.139038 281.077382 118.139038 542.066931zM781.803573 103.26164L241.923911 103.26164c-63.979022 0-117.213029 50.447696-123.214661 114.724417l272.146486 159.613882c0.166387 0.100731 0.325579 0.209558 0.488368 0.312988l106.62271-64.063565c4.254115-2.539878 9.060457-3.86468 13.922561-3.86468 4.860305 0 9.665747 1.324802 13.920761 3.86468l106.624508 64.064464c0.163689-0.10433 0.322881-0.213156 0.490168-0.313887l271.891957-159.464583C898.911374 153.787584 845.882428 103.26164 781.803573 103.26164z"  horiz-adv-x="1040" />
      
      <glyph glyph-name="weixin" unicode="&#59478;" d="M927.859898-31.859898c-3.669352 0-7.950263 1.223117-11.619614 3.057793l-64.213661 33.635727c-45.8669-23.850788-97.23783-36.693521-150.443434-36.69352-165.120842 0-299.66375 120.477059-299.66375 269.085816s134.542909 269.085817 299.66375 269.085817 299.66375-120.477059 299.663751-269.085817c0-59.321191-22.016112-117.419265-62.378985-164.509284l12.842731-76.444833c1.834676-9.17338-2.446235-18.34676-9.784938-23.850789-4.280911-2.446235-9.17338-4.280911-14.06585-4.28091z m-226.276709 489.246939c-138.21226 0-250.739057-98.460947-250.739056-220.161123s112.526796-220.161123 250.739056-220.161123c49.536252 0 97.23783 12.842733 138.21226 36.693521 7.338704 4.280911 16.512084 4.280911 23.850788 0.611559l31.801052-16.512084-6.727146 39.139754c-1.223117 7.338704 1.223117 15.288966 6.115587 20.792996 36.693521 39.139756 57.486515 89.287566 57.486515 140.046936 0 121.088618-112.526796 219.549564-250.739056 219.549564zM591.502627 305.108931m-36.693519 0a36.693521 36.693521 0 1 1 73.38704 0 36.693521 36.693521 0 1 1-73.38704 0ZM811.66375 305.108931m-36.69352 0a36.693521 36.693521 0 1 1 73.387041 0 36.693521 36.693521 0 1 1-73.387041 0ZM255.145357 580.310334m-42.809107 0a42.809108 42.809108 0 1 1 85.618214 0 42.809108 42.809108 0 1 1-85.618214 0ZM512 580.310334m-42.809108 0a42.809108 42.809108 0 1 1 85.618216 0 42.809108 42.809108 0 1 1-85.618216 0ZM107.148158 152.830821c-4.89247 0-10.396498 1.834676-14.677409 4.89247-7.338704 5.504028-11.008057 14.677409-9.784939 23.850788l16.512085 95.403153C49.661642 333.852189 22.75306 404.181436 22.75306 476.34536 22.75306 654.920493 184.816109 799.859898 383.572678 799.859898c94.791595 0 184.079161-32.41261 251.962174-92.34536 68.494572-59.93275 107.022768-140.046936 108.857444-226.276708 0-6.727146-2.446235-13.454291-7.338704-18.346761s-11.619615-7.338704-18.34676-6.727145c-6.115587 0.611559-11.619615 0.611559-16.512084 0.611559-138.21226 0-250.739057-98.460947-250.739057-220.161123 0-16.512084 2.446235-33.635727 6.727146-50.147811 1.834676-6.727146 0.611559-14.06585-3.057794-20.181437s-10.396498-9.784939-17.123643-10.396497c-17.735201-2.446235-35.470403-3.669352-53.205605-3.669352-65.436778 0-128.427322 15.900525-184.079161 45.255341l-80.725744-42.809106c-4.89247-0.611559-9.17338-1.834676-12.842732-1.834677z m92.345359 97.849387c4.280911 0 8.561822-1.223117 12.231174-3.057792 56.874957-33.024169 124.146411-48.924694 192.640983-44.643784-1.834676 11.619615-2.446235 23.239229-2.446235 34.858845 0 146.162523 130.261998 265.416465 291.713487 269.085817-17.123642 136.989143-150.443434 244.62347-310.060248 244.62347-171.847987 0-311.894924-122.923294-311.894923-274.589845 0-63.602102 25.685464-125.981087 71.552364-174.905781 5.504028-5.504028 7.338704-13.454291 6.115587-20.792996l-9.784939-58.709632 48.924694 25.685465c3.669352 1.223117 7.338704 2.446235 11.008056 2.446233z"  horiz-adv-x="1024" />
      
      <glyph glyph-name="dianhua" unicode="&#58880;" d="M888.47037 548.411768c41.831458 48.553322 42.690819 117.315478 1.926077 153.560538l-120.949188 107.575318-5.693957 4.458696c-8.502681 5.863611-18.57106 9.497322-30.018853 11.097394-29.873593 4.167068-69.051568-5.766032-113.753844-27.572724-87.75569-42.932548-196.784714-131.706165-298.424346-249.652581-101.639632-117.908714-173.84034-239.464445-204.077637-333.519525-21.322124-66.21734-21.806692-118.842368 2.930697-146.947342l5.114027-5.136204L246.448139-45.277804c13.13103-11.678434 28.952137-18.558863 45.79117-20.90963 35.47108-4.942156 75.425251 10.225837 103.773064 43.152101l76.39217 88.652752c41.843656 48.531144 42.690819 117.291084 1.914989 153.537252l-115.474783 102.706348c26.216598 37.699873 55.896142 76.052861 88.628357 114.044363 32.758827 37.990394 66.241735 72.964707 99.580492 104.315293L662.515075 437.528742c13.119942-11.655147 28.941049-18.535577 45.778972-20.885235 35.47108-4.96655 75.413054 10.224728 103.784152 43.126597L888.47037 548.411768 888.47037 548.411768zM299.556626-12.131987c-6.953613 0.969137-12.913695 3.633709-17.7117 7.898356l-12.98688 11.532065L427.435033 188.336335l11.508779-10.224728c10.394382-9.2567 11.800408-23.041954 11.702829-30.431346-0.217335-15.79782-7.001294-32.61135-18.632047-46.131587l-76.417674-88.652753C340.260381-4.91114 318.260748-14.724484 299.556626-12.131987L299.556626-12.131987zM811.484963 697.320669l-158.249875-180.843852-84.981341 76.369994-22.241363 20.787656-35.495475-33.386437c-35.373501-33.338757-70.167073-69.827764-103.457041-108.412502-33.242288-38.595827-64.230278-78.475704-92.069126-118.503059l-27.910925-40.170397 36.39032-32.368512 69.70579-61.348369-161.193877-183.120326-69.826656 65.876922-2.181112 2.205508c-4.506376 6.469045-10.587323 33.508412 8.552579 93.013868 13.836261 43.030127 38.015897 93.546118 69.926451 146.122356 34.233601 56.356316 75.786737 113.027546 123.491787 168.425813 47.730553 55.387179 97.545748 104.716697 148.012949 146.631319 47.077439 39.105899 93.160237 70.117174 133.306239 89.743863 49.31732 24.083166 74.57587 23.937906 83.140646 22.725931 3.416374-0.484569 5.402329-1.210866 6.493439-1.791906l2.433931-1.939383L811.484963 697.320669zM866.701379 630.497895c-0.19405-15.796712-6.989097-32.612459-18.643136-46.132696l-76.381082-88.676038c-15.349845-17.797081-37.360565-27.609317-56.065796-24.992424-6.953613 0.969137-12.913695 3.609315-17.710592 7.898356l-9.134726 8.11569L845.949205 668.343028l9.062652-7.414896C865.405131 651.67365 866.797849 637.910574 866.701379 630.497895L866.701379 630.497895z"  horiz-adv-x="1024" />
      
    </font>
</defs>
</svg>
